Cinemawala (2016) Bengali Movie – 1CD – SCam Rip 700mb mkv

http://ultraimg.com/images/209ade.jpg

General
Format : Matroska
Format version : Version 2
File size : 701 MiB
Duration : 1h 53mn
Overall bit rate : 862 Kbps

Video
Format : AVC
Format/Info : Advanced Video Codec
Format profile : High@L2.1
Format settings, CABAC : Yes
Format settings, ReFrames : 5 frames
Codec ID : V_MPEG4/ISO/AVC
Duration : 1h 53mn
Bit rate : 764 Kbps
Width : 560 pixels
Height : 240 pixels
Display aspect ratio : 2.35:1
Frame rate mode : Constant
Frame rate : 25.000 fps
Color space : YUV
Chroma subsampling : 4:2:0
Bit depth : 8 bits
Scan type : Progressive
Bits/(Pixel*Frame) : 0.227
Stream size : 621 MiB (89%)

Audio
Format : AAC
Format profile : LC
Codec ID : A_AAC
Duration : 1h 53mn
Bit rate : 96.0 Kbps
Channel(s) : 2 channels
Channel positions : Front: L R
Sampling rate : 48.0 KHz
Stream size : 78.0 MiB (11%)

Download Cinemawala (2016) Bengali Movie – 1CD – SCam Rip 700mb mkv

Download Link HD Full Movie 700MB File

BDupload Download Link
OR
indishare Download Link
OR
Uppit Download Link
OR
Clicknupload Download Link
OR
Uptobox Download Link

Leave a Reply

Your email address will not be published. Required fields are marked *

*